Go Back   Punjabi Junktion » :- Music Corner -: » Other Music » Kollywood Music

Vettaikaran (2009) - HD Video Songs - 720p - X264 - AC3 - 5.1ch - SR

This is a discussion on Vettaikaran (2009) - HD Video Songs - 720p - X264 - AC3 - 5.1ch - SR within the Kollywood Music forums, part of the Other Music category; Vettaikaran (2009) - HD Video Songs - 720p - X264 - AC3 - 5.1ch - Team SR Code: General Complete ...

Reply
  #1  
Old 02-09-2014
sundarmobiles
 
Default Vettaikaran (2009) - HD Video Songs - 720p - X264 - AC3 - 5.1ch - SR












Vettaikaran (2009) - HD Video Songs - 720p - X264 - AC3 - 5.1ch - Team SR











Code:

General
Complete name                    : www.scenerockers.net VETTAIKARAN 5.1 Video songs - Team SR\En Uchimadaila.mkv
Format                           : Matroska
File size                        : 142 MiB
Duration                         : 4mn 7s
Overall bit rate                 : 4 830 Kbps
Writing application              : HandBrake 0.9.3

Video
ID                               : 1
Format                           : AVC
Format/Info                      : Advanced Video Codec
Format profile                   : [email protected]
Format settings, CABAC           : Yes
Format settings, ReFrames        : 2 frames
Codec ID                         : V_MPEG4/ISO/AVC
Duration                         : 4mn 7s
Bit rate                         : 4 286 Kbps
Nominal bit rate                 : 3 500 Kbps
Width                            : 1 280 pixels
Height                           : 720 pixels
Display aspect ratio             : 16:9
Frame rate                       : 23.976 fps
Color space                      : YUV
Chroma subsampling               : 4:2:0
Bit depth                        : 8 bits
Scan type                        : Progressive
Bits/(Pixel*Frame)               : 0.194
Stream size                      : 126 MiB (89%)
Writing library                  : x264 core 65
Encoding settings                : cabac=1 / ref=2 / deblock=1:0:0 / analyse=0x1:0x111 / me=umh / subme=6 / psy_rd=1.0:0.0 / mixed_ref=0 / me_range=16 / chroma_me=1 / trellis=0 / 8x8dct=0 / cqm=0 / deadzone=21,11 / chroma_qp_offset=-2 / threads=3 / nr=0 / decimate=1 / mbaff=0 / bframes=2 / b_pyramid=0 / b_adapt=1 / b_bias=0 / direct=1 / wpredb=0 / keyint=240 / keyint_min=24 / scenecut=40(pre) / rc=2pass / bitrate=3500 / ratetol=1.0 / qcomp=0.60 / qpmin=10 / qpmax=51 / qpstep=4 / cplxblur=20.0 / qblur=0.5 / ip_ratio=1.40 / pb_ratio=1.30 / aq=1:1.00
Language                         : English
Color primaries                  : BT.601-6 525, BT.1358 525, BT.1700 NTSC, SMPTE 170M
Transfer characteristics         : BT.709-5, BT.1361
Matrix coefficients              : BT.601-6 525, BT.1358 525, BT.1700 NTSC, SMPTE 170M

Audio
ID                               : 2
Format                           : AC-3
Format/Info                      : Audio Coding 3
Mode extension                   : CM (complete main)
Codec ID                         : A_AC3
Duration                         : 4mn 7s
Bit rate mode                    : Constant
Bit rate                         : 448 Kbps
Channel(s)                       : 6 channels
Channel positions                : Front: L C R, Side: L R, LFE
Sampling rate                    : 48.0 KHz
Bit depth                        : 16 bits
Compression mode                 : Lossy
Stream size                      : 13.2 MiB (9%)
Language                         : English








All Credits Goes To Original Ripper (Thanks)


DOWNLOAD




ArabloadS

Code:
http://www.arabloads.com/kuon2wyy9y71/En_Uchimadaila.mkv.html
http://www.arabloads.com/304ipjayex81/Karigalan.mkv.html
http://www.arabloads.com/nm3aa1stf30g/Naan_Aditha.mkv.html
http://www.arabloads.com/xjhdslp4u9sc/Oru_Chinna_Thamarai.mkv.html
http://www.arabloads.com/bohsk7k9z3hb/Puli_urumudhu.mkv.html


FilesflasH

Code:
http://filesflash.net/lv6y1e8d
http://filesflash.net/8o907z47
http://filesflash.net/jyfvv0hr
http://filesflash.net/lzf0vplq
http://filesflash.net/ex372xou



Sponsored Links
Reply

Tags
51ch, 720p, ac3, hd, songs, sr, vettaikaran, video, x264

Thread Tools
Display Modes



PunjabiJunktion.Co.In tested by Norton Security PunjabiJunktion.Co.In tested by McAfee Security
All times are GMT +5.5. The time now is 10:43 PM. Ad Management plugin by PJ Tech Team